#TITLE:I Know;
#SUBTITLE:;
#ARTIST:Son Ho Young;
#TITLETRANSLIT:I Know;
#SUBTITLETRANSLIT:;
#ARTISTTRANSLIT:Son Ho Young;
#CREDIT:Thu Ba , 25-11-2008;
#BANNER:I Know-bn.png;
#BACKGROUND:I Know-bg.png;
#LYRICSPATH:;
#CDTITLE:pm4cd.png;
#MUSIC:I Know.mp3;
#OFFSET:0.140;
#SAMPLESTART:61.040;
#SAMPLELENGTH:20.000;
#SELECTABLE:YES;
#BPMS:0.000=130.010,197.000=65.010,201.000=130.010,335.000=260.011,339.000=130.010,395.000=65.010,398.000=130.010;
#STOPS:;
#BGCHANGES:;
// cache tags:
#FIRSTBEAT:1.500;
#LASTBEAT:516.500;
#SONGFILENAME:Songs/Music V.I.P ^_^/I Know/I Know.sm;
#HASMUSIC:1;
#HASBANNER:1;
#MUSICLENGTH:243.744;
// end cache tags

//---------------dance-single - ----------------
#NOTES:
     dance-single:
     :
     Hard:
     15:
     1.000,1.000,1.000,0.156,1.000,1485.000,380.000,38.000,0.000,134.000:
0000
0000
0000
0022
0000
0000
0000
0000
,
0000
0000
1133
0001
1000
0010
0000
1000
,
0100
0010
0101
1000
0001
0010
0000
0001
,
0010
0100
1001
0010
1000
0001
0000
1000
,
0100
0010
1100
0001
0010
1000
0000
0001
,
0010
0000
0100
0000
1101
0000
0100
0000
0100
0000
0100
1000
0100
0000
0001
0000
,
0001
0000
0001
0000
0111
0000
0010
0000
0010
0000
1010
0001
1110
0000
1000
0000
,
1000
0001
1000
0000
1101
0000
0100
0000
0100
0000
0100
0000
0001
0000
0001
0000
,
0001
0000
0111
0000
0111
0000
0110
0000
0110
0000
0110
1001
0110
0000
1001
0110
,
1001
1001
0110
0110
1011
0100
1000
0000
0001
0100
1000
0000
0101
0010
0001
0000
,
1000
0100
0010
0000
0101
1000
0001
0000
0010
0001
1000
0000
1100
0010
1000
0000
,
0100
0010
0001
0000
1010
0100
0001
0000
0001
0100
1000
0000
1010
0100
1000
0000
,
1000
0001
0010
0000
0101
1000
0100
0000
0010
0100
0001
0000
1100
0010
1000
0000
,
0001
0010
0100
0000
1010
0100
1001
0000
0101
0010
1001
0000
0110
0001
1010
0000
,
0110
1000
0101
0000
1100
0010
0101
0000
0011
0100
1010
0000
0101
1000
0110
0000
,
1010
0001
0110
0000
1001
0100
0011
0000
1001
0010
1100
0000
1010
0001
1100
0000
,
0101
1000
0011
0000
1001
1000
0101
0000
1001
0001
1010
0000
0110
0100
0011
0000
,
0110
0010
1100
0001
1110
0000
0001
0000
1000
0000
0011
0000
0101
0000
0010
0000
,
0100
1010
1010
0100
0001
1100
0110
1000
,
0001
0100
1000
0000
0011
0000
0100
0000
0001
0000
1000
0000
0101
0000
1000
0000
,
0100
0011
0011
0010
0100
1001
0110
1001
,
0100
0011
1100
0001
0100
0101
0110
1000
,
0100
1100
1100
0010
0001
0101
0011
0100
,
0001
1000
1010
0100
0010
1000
0110
0001
,
1000
0000
1010
0000
0101
0000
0010
0000
0010
0000
0010
0010
0010
0000
0010
0010
,
0100
0100
1000
1000
0112
0000
1000
0000
0010
0000
1100
0000
0110
0000
1000
0000
,
0100
0000
1010
0003
1020
0000
0100
0000
0001
0000
1100
0000
0101
0000
1000
0000
,
0001
0100
1000
0030
1200
0000
0001
0000
0010
0000
1000
0000
0011
0000
1000
0000
,
0010
0000
1001
0300
2001
0000
0100
0000
0010
0000
0101
0000
0011
0000
0101
0000
,
0010
0000
0110
3000
0120
0000
1000
0000
0001
0000
1100
0000
1001
0000
0100
0000
,
1000
0000
0101
0030
0102
0000
1000
0000
0010
0000
1100
0000
1010
0000
0100
0000
,
1000
0010
0100
0003
2010
0000
0100
0000
0001
0000
0010
0000
0101
0000
0010
0000
,
0100
0000
0011
3000
0022
0000
1000
0000
1000
0000
1000
1000
1000
0000
1000
0100
,
1000
1000
0100
0133
1110
0001
0010
0000
1000
0100
0001
0000
0011
0100
1000
0000
,
0010
1000
0100
0000
0101
0010
1000
0000
0001
0010
0100
0000
1010
0100
1000
0000
,
0100
0001
1000
0000
0011
1000
0100
0000
0001
0010
1000
0000
1100
0010
0001
0000
,
0100
0001
0010
0000
1001
0010
0100
0000
0010
0100
1000
0000
1100
0001
0010
0000
,
0001
0010
1000
0000
1010
0100
0010
0000
0100
0010
0001
0000
1001
0100
0001
0000
,
0010
0100
1000
0000
1100
0001
0100
0000
1000
0100
0010
0000
1001
0010
0001
0000
,
0100
0010
0001
0000
0011
0100
0010
0000
1000
0001
0100
0000
1010
0001
1000
0000
,
0100
1000
0010
0000
0011
1000
0001
0000
0001
0000
0001
0001
0001
0000
0001
0001
,
0010
0010
0100
0100
1011
0100
1000
0001
0010
0100
0001
1000
0011
0100
0001
0100
,
0001
1000
0010
1000
0101
0010
1000
0010
1000
0001
0100
0010
1100
0001
0100
0010
,
0100
1000
0010
0100
1010
0001
0100
0010
0001
1000
0010
0100
1001
0100
0001
1000
,
0001
1000
0010
0100
1010
0100
1000
0010
0100
0010
1000
0001
0110
0001
0100
1000
,
0010
0100
0010
1000
0101
1000
0010
0100
1000
0001
1000
0010
1100
0001
1000
0010
,
1000
0010
0100
0010
0100
1000
0001
0010
0100
0010
0001
1000
0101
0010
0001
0010
,
0100
0010
0001
1000
0011
0100
0010
1000
0010
1000
0100
0010
1001
0100
0001
0100
,
0001
1000
0010
1000
0011
0100
0010
1000
0010
0000
0010
0010
0010
0000
0010
0010
,
0001
0001
1000
1000
0200
1000
0001
0010
1000
0010
1000
0001
0010
0000
0000
1001
,
0311
0000
0100
0100
0011
0000
0100
0000
0001
0000
1000
0000
0101
0000
1000
0000
,
0100
0011
0011
0010
0100
1001
0110
1001
,
0100
0011
1100
0001
0100
0101
0110
1000
,
0100
1100
1100
0010
0001
0101
0011
0100
,
0001
1000
1010
0100
0010
1000
0110
0001
,
1000
0000
1010
0000
0101
0000
0010
0000
0010
0000
0010
0010
0010
0000
0010
0010
,
0100
0100
1000
1000
0112
0000
1000
0000
0010
0000
1100
0000
0110
0000
1000
0000
,
0100
0000
1010
0003
1020
0000
0100
0000
0001
0000
1100
0000
0101
0000
1000
0000
,
0001
0100
1000
0030
1200
0000
0001
0000
0010
0000
1000
0000
0011
0000
1000
0000
,
0010
0000
1001
0300
2001
0000
0100
0000
0010
0000
0101
0000
0011
0000
0101
0000
,
0010
0000
0110
3000
0120
0000
1000
0000
0001
0000
1100
0000
1001
0000
0100
0000
,
1000
0000
0101
0030
0102
0000
1000
0000
0010
0000
1100
0000
1010
0000
0100
0000
,
1000
0010
0100
0003
2010
0000
0100
0000
0001
0000
0010
0000
0101
0000
0010
0000
,
0100
0000
0011
3000
0022
0000
1000
0000
1000
0000
1000
1000
1000
0000
1000
0100
,
1000
1000
0100
0133
1110
0001
0010
0000
1000
0100
0001
0000
0011
0100
1000
0000
,
0010
1000
0100
0000
0101
0010
1000
0000
0001
0010
0100
0000
1010
0100
1000
0000
,
0100
0001
1000
0000
0011
1000
0100
0000
0001
0010
1000
0000
1100
0010
0001
0000
,
0100
0001
0010
0000
1001
0010
0100
0000
0010
0100
1000
0000
1100
0001
0010
0000
,
0001
0010
1000
0000
1010
0100
0010
0000
0100
0010
0001
0000
1001
0100
0001
0000
,
0010
0100
1000
0000
1100
0001
0100
0000
1000
0100
0010
0000
1001
0010
0001
0000
,
0100
0010
0001
0000
0011
0100
0010
0000
1000
0001
0100
0000
1010
0001
1000
0000
,
0100
1000
0010
0000
0011
1000
0001
0000
0001
0000
0001
0001
0001
0000
0001
0001
,
0010
0010
0100
0100
1011
0100
1000
0001
0010
0100
1001
0100
0011
0100
0001
0100
,
0001
1000
0101
1000
0101
0010
1000
0010
1000
0001
0101
0010
1100
0001
0100
0010
,
0100
1000
0010
0100
1010
0001
0100
0010
0001
1000
0010
0100
1001
0100
0001
1000
,
0001
0100
1010
0100
1010
0100
1000
0010
0100
0010
1100
0001
0110
0001
1100
0001
,
0010
1000
0101
1000
0101
1000
0010
0100
1000
0001
1001
0010
1100
0001
1000
0010
,
1000
0010
1100
0010
1100
0010
0001
0010
0100
0010
1001
1000
0101
0010
0001
0010
,
0100
0010
0001
1000
0011
0100
0010
1000
0010
1000
0100
0010
1001
0100
0001
0100
,
0001
1000
0011
1000
0011
0100
0010
1000
0010
0000
0011
0010
0010
0000
0110
0010
,
0001
0001
1010
1000
0202
0000
0000
0000
1010
0000
0000
0000
1010
1000
0010
0000
,
1010
0010
1000
0303
0021
0000
0000
0000
0000
0000
0000
0000
0131
0100
1000
1000
,
0100
0100
0010
0010
1101
0010
0001
0000
0001
0100
1000
0000
0101
0010
0001
0000
,
1000
0100
0010
0000
0101
1000
0001
0000
0010
0001
1000
0000
1200
0000
0000
0000
,
0000
0000
0000
0000
0000
0000
0000
0000
0000
0000
0000
0000
1310
0100
0001
0000
,
0010
0100
1000
0000
0101
0010
0100
0000
0001
0100
0010
0000
1001
0100
0100
0011
,
0001
0000
1001
0001
1010
0100
1000
0100
0010
0001
0010
0010
1101
0010
1000
0000
,
0001
0100
1000
0000
0101
0010
0001
0000
1000
0100
0010
0000
0101
1000
0001
0000
,
0010
0001
1000
0000
1100
0010
1000
0000
0100
0010
0001
0000
1010
0100
0001
0000
,
0001
0100
1000
0000
1010
0100
1000
0000
1000
0001
1010
0000
1101
0000
1011
0000
,
1101
0000
1011
0000
1101
1011
1101
1011
1101
1011
1101
1011
1112
0000
0010
0000
,
0100
0000
1100
0000
0110
0000
1000
0000
0100
0000
1010
0003
1020
0000
0100
0000
,
0001
0000
1001
0000
1100
0000
0001
0000
0100
0001
1000
0030
1200
0000
0001
0000
,
1000
0000
0010
0000
1001
0000
0001
0000
1000
0000
0011
0300
0021
0000
0100
0000
,
1000
0000
0101
0000
1001
0000
0101
0000
1000
0000
1100
0030
2100
0000
0010
0000
,
0001
0000
0110
0000
0011
0000
0100
0000
0001
0000
0110
3000
0210
0000
0001
0000
,
1000
0000
0011
0000
1001
0000
1000
0000
0010
0000
1000
0300
0021
0000
1000
0000
,
0100
0000
0001
0000
0101
0000
1000
0000
0100
0000
1001
0030
2002
0000
0110
0000
,
0110
0000
0110
0110
0110
0000
0110
0010
0110
0100
0110
3013
1221
0000
0000
0000
,
0000
0000
0000
0000
0000
0000
0000
0000
0000
0000
0000
0000
0000
0000
1001
0330
1001
0000
0001
0000
0001
0000
0001
0000
0001
0000
0001
0000
0001
0000
0001
0000
,
1011
0100
0001
1000
0010
0100
0001
1000
0110
1000
0010
0100
0010
0001
0100
0010
,
1100
0001
1000
0010
0100
0001
0010
1000
0101
0001
0100
1000
0001
0100
1000
0010
,
1010
0100
0001
1000
0100
0010
0001
0010
1100
0010
0100
1000
0100
0010
0100
0010
,
1001
0010
0100
0010
0100
1000
0100
0010
0101
0100
0001
1000
0010
1000
0001
0100
,
0011
1000
0010
1000
0100
0010
1000
0100
1010
0100
0001
1000
0010
0100
1000
0001
,
0110
1000
0001
1000
0010
0100
0010
0100
1100
0001
0010
0100
0010
0001
1000
0010
,
1001
0100
0001
0010
1000
0100
0010
0100
0011
0100
1000
0010
0001
0100
0001
1000
,
1010
0100
1000
0001
1000
0010
1000
1000
1100
0001
1000
1000
0100
0100
0010
0010
,
1101
0010
1000
0001
0100
0010
1001
0100
1010
0001
0010
1000
0010
0100
0011
1000
,
0011
0100
0010
0001
1000
0100
0101
1000
0011
0100
1000
0100
0010
0001
0010
0100
,
1001
0010
0100
0001
1000
0010
1000
0001
1010
0100
1000
0100
0010
0001
0011
0100
,
0011
0100
0010
0100
0010
0001
1100
0010
1001
0010
1100
0001
0010
0001
0110
1000
,
0011
0100
1000
0001
0100
0011
1000
1010
0100
0001
0010
0100
1000
0001
1010
0001
,
1010
0100
0001
1000
0010
0001
1100
0010
1001
0100
0010
0001
1000
0001
0100
0001
,
1010
0100
0001
0100
0001
0010
0100
0010
1001
1000
0010
0001
0100
0001
0110
1000
,
0110
1000
0001
0100
0001
1000
0001
0001
0001
0100
0001
0001
0010
0010
0100
0100
,
1011
0100
0010
0001
0010
0100
1010
0001
1010
0100
0010
0001
0010
0100
1010
0001
,
1010
0100
0010
0100
1000
0100
0011
0100
0011
0100
0010
0100
1000
0100
0010
0100
,
1001
0010
0100
0010
0001
0010
0100
0010
1001
0010
0100
0010
0001
0010
1001
0010
,
1001
0100
0010
0100
1000
0100
1010
0100
1010
0100
0011
0100
1000
0100
1001
0100
,
1001
0010
0001
0010
1000
0010
1100
0010
1100
0010
0001
0010
1000
0010
0101
0010
,
0101
0010
1000
0001
0100
0001
0110
0001
0110
0001
1000
0001
0100
0001
1000
0001
,
0110
1000
0100
1000
0010
1000
0100
1000
0011
1000
0100
1000
0010
1000
0101
1000
,
0101
1000
0010
0001
0010
1000
0010
0010
0010
0100
1000
1000
0100
0100
0010
0010
,
1101
0001
1000
0010
0000
1000
0100
0010
,
0101
1000
0001
0010
0000
0001
0010
0100
,
1001
0010
1000
0001
0000
1000
0100
0010
,
1100
0001
0010
1000
0202
0000
0000
0000
,
0000
0000
0000
0000
,
0000
0303
0000
0000
0000
0000
0000
0000
;
